《Damsel主題歌》[C75][PCGame Theme Song-ユメノハテニ][霜月はるか][TAK]

《Damsel主題歌》[C75][PCGame Theme Song-ユメノハテニ][霜月はるか][TAK]
  • 片  名  《Damsel主題歌》[C75][PCGame Theme Song-ユメノハテニ][霜月はるか][TAK]
  • 简  介  发行时间: 2008年12月29日
  • 类  别  动漫
  • 小  类  动漫周边


  • 详细介绍中文名: Damsel主題歌别名: ダムゼル资源格式: TAK版本: [C75][PCGame Theme Song-ユメノハテニ][霜月はるか]发行时间: 2008年12月29日地区: 日本简介:
    【遊戲介紹】
     教師である主人公“日下部匡”は、新しい赴任先の私立高校に向かうため、寝台列車に乗り込んだ。ギリギリで駆け込んだ列車には、偶然にも同じ学校の新入生らしき生徒たちが乗り合わせていた。委員長タイプの“一宮燐”、控えめで物静かな“明日野静奈”、今どきの女子高生風の“森流”、そして唯一の男子“平岡有人”。
     目的地まで十数時間はかかる長旅。時代後れの寝台列車が一時のざわめきを取り戻し、“匡”を中心にして数少ない乗客が集まっていく。騒がしくもあり、楽しくもある旅路にそれぞれが交流を深めていた。
    しかし、それは舞台の幕開けを告げる前座だった。一瞬の停電を皮切りに、寝台列車は暴走を始める。“匡”たちは事態の解決に奔走するが、その努力をあざ笑うように悪化していく。駅の通過、車掌の失踪、そして殺人……。非現実に巻き込まれた彼らは、死体のかたわらに立つ銀髪の少女を目にする。
    “匡”たちを襲う犯人は誰なのか? 銀色の髪の少女の正体とは? すべての謎を乗せたまま、列車は走り続ける……。
    【單曲介紹】
    Damsel(ダムゼル) 主題歌 「ユメノハテニ」 霜月はるか
    メーカー: 工画堂スタジオ
    JAN: 4959067085009
    発売日: 2009/01/09
    1次締切: 2008/12/18
    Catalog Number KGD-085009
    Release Date Dec 28, 2008
    Release Type Official Release
    Release Price 1200 JPY
    Media Type CD (1 disc)
    Classification Vocal
    2009年夏(第一部)発売予定のデジタルノベル「Damsel(ダムゼル)」主題歌。
    ボーカル:霜月はるか
    【Artists】
    ユメノハテニ
    作詞作曲 naotyu-
    歌 霜月はるか 
    永久のやすらぎ
    作詞 YOMSAM 
    作曲 k-shi
    歌 霜月はるか
    【曲目】
    01 ユメノハテニ 5:34
    02 永久のやすらぎ 3:42
    03 ユメノハテニ (Voiceless Version) 5:34
    04 永久のやすらぎ (Voiceless Version) 3:42
  • 《Damsel主題歌》[C75][PCGame Theme Song-ユメノハテニ][霜月はるか][TAK]_large

精选评论

霜月今年的歌好少的说= =
来顶楼主一个,辛苦了!
霜月的啊.....就冲这名字来了.....LZ大大感谢...
已经听过第一首很不错
Kogado今年的新作,羊之方舟的续作——
他们终于开始重视周边了么——
支持霜月!
瓦居然真的把所有c75的音乐物都下了……囧
呃....歌是不错..但是为啥没有booklet呢?
郁闷....
请问这个没有CUE么。。。?
特地編出cue給各位

PERFORMER "霜月はるか"
TITLE "ユメノハテニ"
REM DATE 2008
REM DISCID 63071A07
REM COMMENT "ExactAudioCopy v0.99pb4"
FILE "KGD-085009.wav" WAVE
TRACK 01 AUDIO
TITLE "ユメノハテニ"
PERFORMER "霜月はるか"
FLAGS DCP
INDEX 01 00:00:00
TRACK 02 AUDIO
TITLE "永久のやすらぎ"
PERFORMER "霜月はるか"
FLAGS DCP
INDEX 01 05:34:00
TRACK 03 AUDIO
TITLE "ユメノハテニ (Voiceless Version)"
PERFORMER "霜月はるか"
FLAGS DCP
INDEX 01 09:16:00
TRACK 04 AUDIO
TITLE "永久のやすらぎ (Voiceless Version)"
PERFORMER "霜月はるか"
FLAGS DCP
INDEX 01 14:50:00
工画堂的.....不错....霜月的...更加不错
多谢发布cue的童鞋
tak不用CUE吧??
我用FOOBAR读取就已经分好轨了
最喜欢霜月的音乐啦~~
谢谢楼主分享。