《クイーンズブレイド 流浪の戦士角色CD》(Queen's Blade)[Character Song + Drama Short~レイナVer][能登麻美子][APE+MP3(320kbps)]

《クイーンズブレイド 流浪の戦士角色CD》(Queen's Blade)[Character Song + Drama Short~レイナVer][能登麻美子][APE+MP3(320kbps)]
  • 片  名  《クイーンズブレイド 流浪の戦士角色CD》(Queen's Blade)[Character Song + Drama Short~レイナVer][能登麻美子][APE+MP3(320kbps)]
  • 简  介  发行时间: 2009年7月24日对白语言: 日语文字语言: 日文
  • 类  别  动漫
  • 小  类  动漫周边


  • 详细介绍中文名: クイーンズブレイド 流浪の戦士角色CD英文名: Queen's Blade版本: [Character Song + Drama Short~レイナVer][能登麻美子][APE+MP3(320kbps)] 发行时间: 2009年7月24日地区: 日本对白语言: 日语文字语言: 日文简介: 【单曲简介】
    TVアニメ「クイーンズブレイド 流浪の戦士」から、キャラクターソングが続々リリース!
    期待の第2弾はトモエ役の能登麻美子が歌いあげる!
    4月より絶賛放送中のTVアニメ「クイーンズブレイド 流浪の戦士」から、豪华!人気声优阵が歌うキャラクターソングが続々リリース!
    ボーナストラックとして、豪华キャストの出演するショートドラマを収録!!
    【单曲介绍】
    TVアニメ クイーンズブレイド 流浪の戦士 キャラクターソング+ショートドラマ~トモエVer.~(CV:能登麻美子)商品种别:音楽CD
    サイズ:CDシングル(12cm)
    定価:1260円 (税込)
    组数:1枚
    演奏时间:00:11:42
    曲数:3
    発売日:2009年07月24日
    贩売元:メディアファクトリー
    规格番号:ZMCZ-4622
    JAN:4935228090181
    内容
    TVアニメ「クイーンズブレイド 流浪の戦士」から、キャラクターソングが続々リリース!
    第2弾はトモエver!特典トラックとして、ショートドラマをボーナス収録!
    全国震撼!テレビの枠を超えたプロジェクトが始动!
    华丽なビキニアーマーを缠った美闘士たちの限界ギリギリバトル开戦!!
    TVアニメ「クイーンズブレイド 流浪の戦士」から、豪华!人気声优阵が歌うキャラクターソングが続々リリース!
    ボーナストラックとして、豪华キャストの出演するショートドラマを収録!!
    期待の第2弾はトモエ役の能登麻美子が歌いあげる!
    【Artist/Cast】
    木本庆子
    横山克
    能登麻美子
    【收录曲目】
    01.日出づる花
    02.日出づる花(オリジナルカラオケ)
    03.ショートドラマ~トモエver.~「トモエとシズカのちょっとアレな话」
  • 《クイーンズブレイド 流浪の戦士角色CD》(Queen's Blade)[Character Song + Drama Short~レイナVer][能登麻美子][APE+MP3(320kbps)]_large

精选评论

能登JJ塞高..........
QB。。TV进不了VC那周边进得来的吧。。。。支持能等JJ 支持钉宫MM 支持川澄JJ 支持。。咳咳 咳咳 CAST实在是太强大了。。。她们会都出的吧?
能登~~
以为是女王之刃的画集......不过那个不太和谐。
刚看到封面吓一跳
仔细一看原来是CD哈
是CD的话
就收下了
有的下动漫么?
也在求动漫呢~ 能登饭不少类~~
PERFORMER "トモエ(CV:能登麻美子)"
TITLE "TVアニメ クイーンズブレイド 流浪の戦士 キャラクターソング+ショートドラマ~トモエVer.~(CV:能登麻美子)"
REM GENRE Anime
REM DATE 2009
REM DISCID 1802C803
REM COMMENT "ExactAudioCopy v0.99pb4"
FILE "トモエ(CV:能登麻美子) - TVアニメ クイーンズブレイド 流浪の戦士 キャラクターソング+ショートドラマ~トモエVer.~" WAVE
TRACK 01 AUDIO
TITLE "日出づる花"
PERFORMER "トモエ(CV:能登麻美子)"
INDEX 01 00:00:00
TRACK 02 AUDIO
TITLE "02.日出づる花(オリジナルカラオケ)"
PERFORMER "トモエ(CV:能登麻美子)"
INDEX 00 04:17:42
INDEX 01 04:20:63
TRACK 03 AUDIO
TITLE "03.ショートドラマ~トモエver.~「トモエとシズカのちょっとアレな话」"
PERFORMER "トモエ(CV:能登麻美子)"
INDEX 00 08:38:52
INDEX 01 08:43:72

cue 個人編輯版