《高达SEED DESTINY OST1&2》(GUNDAM SEED DESTINY OST1&2)[APE]

《高达SEED DESTINY OST1&2》(GUNDAM SEED DESTINY OST1&2)[APE]
  • 片  名  《高达SEED DESTINY OST1&2》(GUNDAM SEED DESTINY OST1&2)[APE]
  • 简  介  发行时间: 2004年12月16日对白语言: 日语
  • 类  别  动漫
  • 小  类  动漫周边


  • 详细介绍中文名: 高达SEED DESTINY OST1 2英文名: GUNDAM SEED DESTINY OST1 2版本: [APE]发行时间: 2004年12月16日地区: 日本对白语言: 日语简介:
    专辑介绍:
    このCDについて
    佐桥俊彦による『DESTINY』サウンドトラック第1弾。ラクス・クライン(田中理恵)が歌う挿入歌「Filds of hope」(作词・作曲・编曲:梶浦由记)を収録!
    内容(「CDジャーナル」データベースより)
    TBS系アニメ『机动戦士ガンダムSEED DESTINY』のオリジナル・サウンドトラック第1弾。弦楽器を多用した、重厚なサウンドが展开される。ラクス・クライン役の田中理恵が歌う楽曲も収録。
    专辑曲目:
    1.运命の扉
    2.MINERVA TAKE OFF
    3.停戦の果てに…
    4.CORE SPRENDER LIFT OFF
    5.静けさの刻
    6.舰队出现
    7.惨剧の大地
    8.言叶なくして
    9.GIRTY LUE NAVIGATION
    10.GAIA×CHAOS×ABYSS
    11.ミッション开始
    12.闇の追迹
    13.戦火の16歳
    14.芽生えた怒り
    15.新たな闇
    16.妖気と微笑み
    17.揺らぐ意识の中で
    18.能力と死と
    19.アスランの不安
    20.憎しみあればこそ
    21.谜の雾
    22.一瞬の戦慄
    23.COLONY ~迫る阴谋
    24.COLONY ~絶体絶命
    25.COLONY ~悲哀交错
    26.梦见る少女に…
    27.Fields of hope / ラクスクライン (田中理恵)
    28.MINERVA NAVIGATION
    29.ignited ~piano version
    30.明日への桥
    专辑介绍:
    このCDについて
    TVアニメ『机动戦士ガンダムSEED DESTINY』のオリジナル・サウンドトラック第2弾。桑岛法子による挿入歌「深海の孤独」、有坂美香による2ndクール・エンディング・テーマ「Life Goes On」ほか、今作も作品世界を彩る选りすぐりの楽曲満载。
    内容(「CDジャーナル」データベースより)
    TBS系アニメ『机动戦士ガンダムSEED DESTINY』のオリジナル・サウンドトラック第2弾。アニメの世界を彩る壮大な音楽を担当するのは、佐桥俊彦。桑岛法子が歌うイメージ・ソングも収録。
    专辑曲目:
    1.出撃 インパルス
    2.始まりが故
    3.开戦前夜
    4.见せない心
    5.戦祸の伤痕
    6.舰队指挥
    7.确执の隙间
    8.伤ついた足迹
    9.漆黒の空间
    10.戦况変化
    11.超えられぬ壁
    12.悩み苦しみ…
    13.叫びと怒りの向く方へ
    14.覚醒シン・アスカ
    15.诱惑
    16.バックパック换装
    17.不穏な言叶
    18.冻结の息
    19.静かなる刻
    20.理想诱导
    21.海と空と风と
    22.信じればこそ
    23.平和への祈り
    24.见えない答え
    25.神経戦
    26.戦略进展せず
    27.深海の孤独(桑岛法子)
    ps:这个资源与Zkii朋友发的是一样的~但由于Zkii朋友发布规范出了点问题,资源一直没有放出去~
    http://bbs.VeryCD.com/topics/129891/
    http://bbs.VeryCD.com/topics/179650/
    这次来发布主要想斑竹把源放出去~与论坛外面的朋友分享
  • 《高达SEED DESTINY OST1&2》(GUNDAM SEED DESTINY OST1&2)[APE]_large

精选评论

OST1的cue

PERFORMER "佐桥俊彦"
TITLE "『机动戦士ガンダムSEED DESTINY』のオリジナル サウンドトラック第1弾"
FILE "CDImage.ape" WAVE
TRACK 01 AUDIO
TITLE "运命の扉"
PERFORMER "佐桥俊彦"
INDEX 01 00:00:00
TRACK 02 AUDIO
TITLE "MINERVA TAKE OFF"
PERFORMER "佐桥俊彦"
INDEX 01 01:24:63
TRACK 03 AUDIO
TITLE "停戦の果てに…"
PERFORMER "佐桥俊彦"
INDEX 01 03:29:25
TRACK 04 AUDIO
TITLE "CORE SPRENDER LIFT OFF"
PERFORMER "佐桥俊彦"
INDEX 01 04:50:68
TRACK 05 AUDIO
TITLE "静けさの刻"
PERFORMER "佐桥俊彦"
INDEX 01 06:18:05
TRACK 06 AUDIO
TITLE "舰队出现"
PERFORMER "佐桥俊彦"
INDEX 01 08:41:00
TRACK 07 AUDIO
TITLE "惨剧の大地"
PERFORMER "佐桥俊彦"
INDEX 01 11:02:30
TRACK 08 AUDIO
TITLE "言叶なくして"
PERFORMER "佐桥俊彦"
INDEX 01 12:39:65
TRACK 09 AUDIO
TITLE "GIRTY LUE NAVIGATION"
PERFORMER "佐桥俊彦"
INDEX 01 14:21:35
TRACK 10 AUDIO
TITLE "GAIA×CHAOS×ABYSS"
PERFORMER "佐桥俊彦"
INDEX 01 15:49:53
TRACK 11 AUDIO
TITLE "ミッション开始"
PERFORMER "佐桥俊彦"
INDEX 01 17:56:48
TRACK 12 AUDIO
TITLE "闇の追迹"
PERFORMER "佐桥俊彦"
INDEX 01 19:53:55
TRACK 13 AUDIO
TITLE "戦火の16歳"
PERFORMER "佐桥俊彦"
INDEX 01 21:26:10
TRACK 14 AUDIO
TITLE "芽生えた怒り"
PERFORMER "佐桥俊彦"
INDEX 01 22:52:15
TRACK 15 AUDIO
TITLE "新たな闇"
PERFORMER "佐桥俊彦"
INDEX 01 24:15:23
TRACK 16 AUDIO
TITLE "妖気と微笑み"
PERFORMER "佐桥俊彦"
INDEX 01 26:18:18
TRACK 17 AUDIO
TITLE "揺らぐ意识の中で"
PERFORMER "佐桥俊彦"
INDEX 01 27:44:43
TRACK 18 AUDIO
TITLE "能力と死と"
PERFORMER "佐桥俊彦"
INDEX 01 29:43:53
TRACK 19 AUDIO
TITLE "アスランの不安"
PERFORMER "佐桥俊彦"
INDEX 01 31:20:63
TRACK 20 AUDIO
TITLE "憎しみあればこそ"
PERFORMER "佐桥俊彦"
INDEX 01 33:20:05
TRACK 21 AUDIO
TITLE "谜の雾"
PERFORMER "佐桥俊彦"
INDEX 01 35:00:70
TRACK 22 AUDIO
TITLE "一瞬の戦慄"
PERFORMER "佐桥俊彦"
INDEX 01 37:13:10
TRACK 23 AUDIO
TITLE "COLONY ~迫る阴谋"
PERFORMER "佐桥俊彦"
INDEX 01 38:44:08
TRACK 24 AUDIO
TITLE "COLONY ~絶体絶命"
PERFORMER "佐桥俊彦"
INDEX 01 40:30:40
TRACK 25 AUDIO
TITLE "COLONY ~悲哀交错"
PERFORMER "佐桥俊彦"
INDEX 01 42:38:73
TRACK 26 AUDIO
TITLE "梦见る少女に…"
PERFORMER "佐桥俊彦"
INDEX 01 43:59:30
TRACK 27 AUDIO
TITLE "Fields of hope"
PERFORMER "田中理恵"
INDEX 01 45:31:43
TRACK 28 AUDIO
TITLE "MINERVA NAVIGATION"
PERFORMER "佐桥俊彦"
INDEX 01 50:39:68
TRACK 29 AUDIO
TITLE "ignited ~piano version"
PERFORMER "佐桥俊彦"
INDEX 01 52:57:65
TRACK 30 AUDIO
TITLE "明日への桥"
PERFORMER "佐桥俊彦"
INDEX 01 55:21:68
OST2的cue

PERFORMER "佐桥俊彦"
TITLE "『机动戦士ガンダムSEED DESTINY』のオリジナル サウンドトラック第2弾"
FILE "CDImage.ape" WAVE
TRACK 01 AUDIO
TITLE "出撃!インパルス"
PERFORMER "佐桥俊彦"
INDEX 01 00:00:00
TRACK 02 AUDIO
TITLE "始まりが故"
PERFORMER "佐桥俊彦"
INDEX 01 01:29:35
TRACK 03 AUDIO
TITLE "开戦前夜"
PERFORMER "佐桥俊彦"
INDEX 01 03:32:08
TRACK 04 AUDIO
TITLE "见せない心"
PERFORMER "佐桥俊彦"
INDEX 01 05:05:43
TRACK 05 AUDIO
TITLE "戦祸の伤痕"
PERFORMER "佐桥俊彦"
INDEX 01 07:07:43
TRACK 06 AUDIO
TITLE "舰队指挥"
PERFORMER "佐桥俊彦"
INDEX 01 09:30:68
TRACK 07 AUDIO
TITLE "确执の隙间"
PERFORMER "佐桥俊彦"
INDEX 01 11:57:15
TRACK 08 AUDIO
TITLE "伤ついた足迹"
PERFORMER "佐桥俊彦"
INDEX 01 13:39:23
TRACK 09 AUDIO
TITLE "漆黒の空间"
PERFORMER "佐桥俊彦"
INDEX 01 15:19:28
TRACK 10 AUDIO
TITLE "戦况変化"
PERFORMER "佐桥俊彦"
INDEX 01 17:05:13
TRACK 11 AUDIO
TITLE "超えられぬ壁"
PERFORMER "佐桥俊彦"
INDEX 01 19:08:43
TRACK 12 AUDIO
TITLE "悩み苦しみ…"
PERFORMER "佐桥俊彦"
INDEX 01 20:48:58
TRACK 13 AUDIO
TITLE "叫びと怒りの向く方へ"
PERFORMER "佐桥俊彦"
INDEX 01 22:16:15
TRACK 14 AUDIO
TITLE "覚醒シン アスカ"
PERFORMER "佐桥俊彦"
INDEX 01 24:27:63
TRACK 15 AUDIO
TITLE "诱惑"
PERFORMER "佐桥俊彦"
INDEX 01 26:17:00
TRACK 16 AUDIO
TITLE "バックパック换装"
PERFORMER "佐桥俊彦"
INDEX 01 28:03:68
TRACK 17 AUDIO
TITLE "不穏な言叶"
PERFORMER "佐桥俊彦"
INDEX 01 29:46:28
TRACK 18 AUDIO
TITLE "冻结の息"
PERFORMER "佐桥俊彦"
INDEX 01 31:28:55
TRACK 19 AUDIO
TITLE "静かなる刻"
PERFORMER "佐桥俊彦"
INDEX 01 33:05:13
TRACK 20 AUDIO
TITLE "理想诱导"
PERFORMER "佐桥俊彦"
INDEX 01 34:33:48
TRACK 21 AUDIO
TITLE "海と空と风と"
PERFORMER "佐桥俊彦"
INDEX 01 36:12:40
TRACK 22 AUDIO
TITLE "信じればこそ"
PERFORMER "佐桥俊彦"
INDEX 01 37:59:33
TRACK 23 AUDIO
TITLE "平和への祈り"
PERFORMER "佐桥俊彦"
INDEX 01 39:59:55
TRACK 24 AUDIO
TITLE "见えない答え"
PERFORMER "佐桥俊彦"
INDEX 01 41:47:58
TRACK 25 AUDIO
TITLE "神経戦"
PERFORMER "佐桥俊彦"
INDEX 01 43:53:65
TRACK 26 AUDIO
TITLE "戦略进展せず"
PERFORMER "佐桥俊彦"
INDEX 01 45:53:53
TRACK 27 AUDIO
TITLE "深海の孤独"
PERFORMER "桑岛法子"
INDEX 01 47:54:18
不知道有速度没 支持了