陈百强 -《四星汇聚》WEA原版[APE]

陈百强 -《四星汇聚》WEA原版[APE]
  • 片  名  陈百强 -《四星汇聚》WEA原版[APE]
  • 简  介  音乐风格: 流行发行时间: 1993年地区: 香港语言: 粤语
  • 类  别  音乐
  • 小  类  华语音乐


  • 详细介绍简介: 专辑介绍:
    陈百强于1993年华纳的粤语精选集,收入19首粤语好歌。
    专辑仅用于试听,请勿用于商业,若转载请注明出处!!!

  • 陈百强 -《四星汇聚》WEA原版[APE]_large

精选评论

REM GENRE Pop
REM DATE 1993
REM DISCID 1811BC13
REM COMMENT "ExactAudioCopy v0.99pb4"
PERFORMER "陈百强"
TITLE "四星汇聚"
FILE "陈百强.-.[四星汇聚].专辑.(APE).ape" WAVE
TRACK 01 AUDIO
TITLE "一生不可自决"
PERFORMER "陈百强"
INDEX 01 00:00:00
TRACK 02 AUDIO
TITLE "只因爱你"
PERFORMER "陈百强"
INDEX 01 04:54:63
TRACK 03 AUDIO
TITLE "一生何求"
PERFORMER "陈百强"
INDEX 01 09:55:50
TRACK 04 AUDIO
TITLE "盼望的缘分"
PERFORMER "陈百强"
INDEX 01 14:44:13
TRACK 05 AUDIO
TITLE "偶像"
PERFORMER "陈百强"
INDEX 01 19:04:00
TRACK 06 AUDIO
TITLE "当我想起你"
PERFORMER "陈百强"
INDEX 01 23:06:63
TRACK 07 AUDIO
TITLE "粉红色的一生"
PERFORMER "陈百强"
INDEX 01 27:41:38
TRACK 08 AUDIO
TITLE "深爱着你"
PERFORMER "陈百强"
INDEX 01 31:26:38
TRACK 09 AUDIO
TITLE "不再问究竟"
PERFORMER "陈百强"
INDEX 01 35:49:63
TRACK 10 AUDIO
TITLE "孤雁"
PERFORMER "陈百强"
INDEX 01 39:08:38
TRACK 11 AUDIO
TITLE "等"
PERFORMER "陈百强"
INDEX 01 42:50:25
TRACK 12 AUDIO
TITLE "摘星"
PERFORMER "陈百强"
INDEX 01 46:43:25
TRACK 13 AUDIO
TITLE "画出彩虹"
PERFORMER "陈百强"
INDEX 01 50:27:13
TRACK 14 AUDIO
TITLE "偏偏喜欢你"
PERFORMER "陈百强"
INDEX 01 53:59:63
TRACK 15 AUDIO
TITLE "脉膊奔流"
PERFORMER "陈百强"
INDEX 01 57:32:50
TRACK 16 AUDIO
TITLE "今宵多珍重"
PERFORMER "陈百强"
INDEX 01 61:39:50
TRACK 17 AUDIO
TITLE "涟漪"
PERFORMER "陈百强"
INDEX 01 65:27:38
TRACK 18 AUDIO
TITLE "思想走了光"
PERFORMER "陈百强"
INDEX 01 68:39:38
TRACK 19 AUDIO
TITLE "念亲恩"
PERFORMER "陈百强"
INDEX 01 72:10:38
Exact Audio Copy V0.99 prebeta 4 from 23. January 2008

EAC 抓取日志文件从19. 七月 2010, 12:15

陈百强 / 四星汇聚

使用驱动器 :TSSTcorpDVD-ROM TS-H352C Adapter: 1 ID: 0

读取模式 : 保护
使用精确流 : 是
废除音频缓冲 : 是
使用 C2 指针 : 否

组合读/写偏移校正 : 6
读取 Lead-In 和 Lead-Out : 否
用静音填充抓取中丢失偏移的采样 : 是
去除首尾静音块 : 否
在 CRC 计算中使用了空样本 : 是
已用接口 : Win NT 及 2000 本地 Win32 接口

所用输出格式 : 内部 WAV 函数
样本格式 : 44.100 Hz;16 Bit;立体声


被抓轨 CD 的 TOC

音轨 | 开始 | 长度 | 起始扇区 | 结尾扇区
--------------------------------------------------
1 | 0:00.00 | 4:54.63 | 0 | 22112
2 | 4:54.63 | 5:00.62 | 22113 | 44674
3 | 9:55.50 | 4:48.38 | 44675 | 66312
4 | 14:44.13 | 4:19.62 | 66313 | 85799
5 | 19:04.00 | 4:02.63 | 85800 | 104012
6 | 23:06.63 | 4:34.50 | 104013 | 124612
7 | 27:41.38 | 3:45.00 | 124613 | 141487
8 | 31:26.38 | 4:23.25 | 141488 | 161237
9 | 35:49.63 | 3:18.50 | 161238 | 176137
10 | 39:08.38 | 3:41.62 | 176138 | 192774
11 | 42:50.25 | 3:53.00 | 192775 | 210249
12 | 46:43.25 | 3:43.63 | 210250 | 227037
13 | 50:27.13 | 3:32.50 | 227038 | 242987
14 | 53:59.63 | 3:32.62 | 242988 | 258949
15 | 57:32.50 | 4:07.00 | 258950 | 277474
16 | 61:39.50 | 3:47.63 | 277475 | 294562
17 | 65:27.38 | 3:12.00 | 294563 | 308962
18 | 68:39.38 | 3:31.00 | 308963 | 324787
19 | 72:10.38 | 3:30.00 | 324788 | 340537


范围状态及错误

已选择范围

文件名 F:陈百强 - 四星汇聚.wav

峰值电平 99.4 %
范围质量 100.0 %
复制 CRC E661D19A
复制成功

没有错误发生

状态报告结尾