《天空之城原声音乐》(Castle In The Sky)[天空の城ラピュタ 大樹][Symphonic Suite][FLAC]

《天空之城原声音乐》(Castle In The Sky)[天空の城ラピュタ 大樹][Symphonic Suite][FLAC]
  • 片  名  《天空之城原声音乐》(Castle In The Sky)[天空の城ラピュタ 大樹][Symphonic Suite][FLAC]
  • 简  介  发行时间: 2004年08月25日
  • 类  别  动漫
  • 小  类  动漫周边


  • 详细介绍中文名: 天空之城原声音乐英文名: Castle In The Sky版本: [天空の城ラピュタ 大樹][Symphonic Suite][FLAC]发行时间: 2004年08月25日简介:
    【专辑介绍】
    商品番号: TKCA-72722
    メディア: アルバムCD
    组枚数: 1
    発売日: 2004/08/25
    価格: 2500円(税込)
    (内容)
    スタジオジブリのサントラシリーズが税込み2.500円で再登场 「天空の城ラピュタ」アルバム。1993年12月21日発売作品。
    【专辑曲目】
    1. プロローグ
    2. Gran ma Dola
    3. 空中散歩
    4. ゴンドア(母に抱かれて)
    5. 大いなる伝説
    6. 大活剧
    7. 鉱山町
    8. 时间の城
    转自台湾ED2000
  • 《天空之城原声音乐》(Castle In The Sky)[天空の城ラピュタ 大樹][Symphonic Suite][FLAC]_large

精选评论

只有我读着CUE有问题吗?
正在自己修改中,辛苦。。。。
主题: 原声大碟 -《天空之城》(Laputa Castle in the Sky)[FLAC]欧版

和那个有什么区别吗?
《天空之城》日版原声一共有四个版本
原声版、印象集、交响乐版、电子乐版
这个是交响乐版,不是对《天空之城》特别有爱的,建议只收原声就够了,14首歌,最后一首就是那首经典的 君をのせて 那个版本
时间の城
太棒啦!
听得我想哭啦!
CUE文件好像有问题,能否请大大们上传个正确的?
PERFORMER "Joe Hisaishi"
TITLE "Laputa - Symphony -taiju- [TKCA-70228]"
FILE "01 - Prologue ~ deai.flac" FLAC
TRACK 01 AUDIO
TITLE "Prologue ~ deai"
PERFORMER "Joe Hisaishi"
INDEX 01 00:00:00
FILE "02 - Gran'ma Dola.flac" FLAC
TRACK 02 AUDIO
TITLE "Gran'ma Dola"
PERFORMER "Joe Hisaishi"
INDEX 01 00:00:00
FILE "03 - kuuchuu sanpo.flac" FLAC
TRACK 03 AUDIO
TITLE "kuuchuu sanpo"
PERFORMER "Joe Hisaishi"
INDEX 01 00:00:00
FILE "04 - Dondoa (haha ni dakarete).flac" FLAC
TRACK 04 AUDIO
TITLE "Dondoa (haha ni dakarete)"
PERFORMER "Joe Hisaishi"
INDEX 01 00:00:00
FILE "05 - ohinaru densetsu.flac" FLAC
TRACK 05 AUDIO
TITLE "ohinaru densetsu"
PERFORMER "Joe Hisaishi"
INDEX 01 00:00:00
FILE "06 - dai-katsugeki.flac" FLAC
TRACK 06 AUDIO
TITLE "dai-katsugeki"
PERFORMER "Joe Hisaishi"
INDEX 01 00:00:00
FILE "07 - kouzan-machi.flac" FLAC
TRACK 07 AUDIO
TITLE "kouzan-machi"
PERFORMER "Joe Hisaishi"
INDEX 01 00:00:00
FILE "08 - jikan no shiro.flac" FLAC
TRACK 08 AUDIO
TITLE "jikan no shiro"
PERFORMER "Joe Hisaishi"
INDEX 01 00:00:00
这个没听过,先下来听听再说,谢谢LZ了
多谢了
谢谢楼主了 还有改cue的大侠
太喜欢这个了!!!
下了,谢谢楼主的无私!
终于看到这个版本了,想收全他动画片所有原声的所有版本真不容易啊。

你这个可修改得真好,谁看谁晕。