Poncho Sanchez -《Raise Your Hand》[APE]

Poncho Sanchez -《Raise Your Hand》[APE]
  • 片  名  Poncho Sanchez -《Raise Your Hand》[APE]
  • 简  介  音乐风格: 拉丁地区: 墨西哥语言: 拉丁语
  • 类  别  音乐
  • 小  类  欧美音乐


  • 详细介绍专辑英文名: Raise Your Hand歌手: Poncho Sanchez音乐风格: 拉丁资源格式: APE地区: 墨西哥语言: 拉丁语简介: 专辑介绍:
    (Poncho Sanchez)的一生可说是拉丁爵士乐界的经典传奇,拥有墨西哥血统生於美国德州但成长於洛杉磯,在这个不常接触拉丁或非拉丁流行音乐的环境里由古巴籍非洲康加舞乐曲鼓手Mongo Santamaria啟发了他的对於拉丁爵士的天赋,年仅23岁便加入电颤琴大师Cal Tjader 拉丁爵士乐团,而以他为名的庞秋.圣骑士乐团也已成为世界最知名的拉丁爵士大乐团。时而柔顺轻鬆、时而慵懒性感的骚莎曲风便是属於Sanchez个人的独特风格,音乐多次获得葛莱美奖提名,并获得最佳拉丁爵士专辑肯定,包括雷‧查尔斯(Ray Ch)、爵士女伶黛安‧瑞芙(Dianne Reeves)都曾与他合作
  • Poncho Sanchez -《Raise Your Hand》[APE]_large

精选评论

骨子里 都洋溢着 拉丁爵士细胞……
谢谢 LZ !
这张CD确实很出彩的,希望大家喜欢!
拉丁!拉丁!!!
喜欢墨西哥!
谢谢。。。。
请把CUE贴一下吧,下了几天都下不下来,奇怪了,几百M的APE都下完了。
非常好听的音乐!!
根据发布者的EACh log做了一个,大家试试。



FORMER "Pancho Sanchez"
GENRE Jazz
REM DATE 2007
REM DISCID 7B0BA10A
REM COMMENT "ExactAudioCopy v0.99pb4"
FILE "Pancho Sanchez - Raise Your Hand.ape" WAVE
TRACK 01 AUDIO
TITLE "Raise Your Hand"
PERFORMER "Pancho Sanchez"
INDEX 01 00:00:00
TRACK 02 AUDIO
TITLE "Tropi Blue"
PERFORMER "Pancho Sanchez"
INDEX 00 03:47:53
INDEX 01 03:49:17
TRACK 03 AUDIO
TITLE "Shotgun"
PERFORMER "Pancho Sanchez"
INDEX 00 08:55:11
INDEX 01 08:56:50
TRACK 04 AUDIO
TITLE "El Agua De Belen"
PERFORMER "Pancho Sanchez"
INDEX 00 12:51:08
INDEX 01 12:52:47
TRACK 05 AUDIO
TITLE "Rosarito"
PERFORMER "Pancho Sanchez"
INDEX 00 19:04:01
INDEX 01 19:05:40
TRACK 06 AUDIO
TITLE "Maceo's House"
PERFORMER "Pancho Sanchez"
INDEX 00 22:59:18
INDEX 01 23:00:57
TRACK 07 AUDIO
TITLE "Donde Va Chichi?"
PERFORMER "Pancho Sanchez"
INDEX 00 28:52:03
INDEX 01 28:53:42
TRACK 08 AUDIO
TITLE "Gestation"
PERFORMER "Pancho Sanchez"
INDEX 00 35:17:43
INDEX 01 35:19:07
TRACK 09 AUDIO
TITLE "Amor Con Amor"
PERFORMER "Pancho Sanchez"
INDEX 00 40:11:41
INDEX 01 40:13:05
TRACK 10 AUDIO
TITLE "Knock On Wood"
PERFORMER "Pancho Sanchez"
INDEX 00 46:02:33
INDEX 01 46:03:72
谢谢了
歌手名字错了,是Poncho Sanchez,呵呵


呵呵,忙中出错。谢谢朋友提醒。

已改!
谢谢楼主分享!