和平之月(Pacific Moon) -《风》(East Wind)[APE]

和平之月(Pacific Moon) -《风》(East Wind)[APE]
  • 片  名  和平之月(Pacific Moon) -《风》(East Wind)[APE]
  • 简  介  无
  • 类  别  音乐
  • 小  类  古典音乐


  • 详细介绍专辑英文名: East Wind专辑中文名: 风艺术家: 和平之月(Pacific Moon)资源格式: APE地区: 日本简介:
    专辑介绍
    和平之月,一个专门制作New Age和World Music的亚洲著名音乐公司,旗下精英荟萃,融合民族和世界、东方乐器和西方配乐的典型效果创造属于Pacific Moon风格的作品,公司99%以上的专辑都用一个汉字来作为专辑的名称,显示了专辑本身的特点和音乐人的风格。
    UTTARA-KURU于98年将梵乐和数码音乐相结合,以崭新的形式制造了具有冲击力的效果。说到他们的音乐,其最根本的基石难道不是POP?当然,UTTARA-KURU的概念就是将古典乐器和传统旋律等所代表的日本文化与电脑、合成器和和声等所代表欧美文化相融合,以创造出全新的音乐价值观。这样的宏大主旨,会使音乐创作稍不小心就很容易流于晦涩,然而他们的音乐旋律优美、技巧娴熟,融力度和柔美于一体。此外,它还直接诉诸于感性,唤起听众的感情。毫无疑问这首先是因为UTTARA-KURU具有非凡的才能,但除此之外,我想作为他们音乐基础的POP感觉也是一个重要因素。在上一张专辑《祈 PRAYER》里,是梵乐作为主要角色登场的,而这次的专辑里,尺八、古筝、民谣等分别成为各支曲目的主导,无论是哪种乐器、哪种声音,都非常完美地完成了“主角”的任务,将各支曲子所象征的世界充分地表现了出来。特别是尺八,简直可以说是最能完美体现这张专辑的主题——“风”这一意象的乐器。和上一张专辑一样,UTTARA-KURU的专辑仿佛让人感到暴雪地带的大雪纷飞中,春天的脚步已经越来越近,夏季节日时的情景已经让人浮想联翩。它让人感受到随遇而安、安静生活者的包容力和坚韧。不管怎么说,这张专辑让人重新认识了日本民族乐器和传统旋律的深奥,是非常精彩的作品。
    之前有cryingbaby前辈发过本专辑的mp3,现补上ape格式的。
  • 和平之月(Pacific Moon) -《风》(East Wind)[APE]_large

精选评论

感谢!
PERFORMER "UTTARA-KURU"
TITLE "和平之月 - 风"
FILE "和平之月.-.[风.East.Wind].专辑.(ape).ape" WAVE
TRACK 01 AUDIO
TITLE "花月 Flowers,Birds,Winds & Moon(Prologue)"
PERFORMER "UTTARA-KURU"
FLAGS DCP
INDEX 01 00:00:00
TRACK 02 AUDIO
TITLE "鹰翔 Wings Of The Eagle"
PERFORMER "UTTARA-KURU"
FLAGS DCP
INDEX 00 03:15:32
INDEX 01 03:17:37
TRACK 03 AUDIO
TITLE "雪舞 Winter Dance"
PERFORMER "UTTARA-KURU"
FLAGS DCP
INDEX 00 08:54:46
INDEX 01 08:58:06
TRACK 04 AUDIO
TITLE "第一印象 First Image"
PERFORMER "UTTARA-KURU"
FLAGS DCP
INDEX 00 13:41:06
INDEX 01 13:43:73
TRACK 05 AUDIO
TITLE "旅途 Neyuki"
PERFORMER "UTTARA-KURU"
FLAGS DCP
INDEX 00 16:01:32
INDEX 01 16:02:67
TRACK 06 AUDIO
TITLE "箱舟 Wooden Ship"
PERFORMER "UTTARA-KURU"
FLAGS DCP
INDEX 00 21:27:54
INDEX 01 21:30:08
TRACK 07 AUDIO
TITLE "第二印象 Second Image"
PERFORMER "UTTARA-KURU"
FLAGS DCP
INDEX 00 25:55:65
INDEX 01 25:57:25
TRACK 08 AUDIO
TITLE "人生 Our Life"
PERFORMER "UTTARA-KURU"
FLAGS DCP
INDEX 00 28:11:12
INDEX 01 28:14:47
TRACK 09 AUDIO
TITLE "风语者 Niigata Okesa"
PERFORMER "UTTARA-KURU"
FLAGS DCP
INDEX 00 33:41:68
INDEX 01 33:44:48
TRACK 10 AUDIO
TITLE "第三印象 Third Image"
PERFORMER "UTTARA-KURU"
FLAGS DCP
INDEX 00 38:30:35
INDEX 01 38:34:03
TRACK 11 AUDIO
TITLE "八重云 Falling Through A Cloud"
PERFORMER "UTTARA-KURU"
FLAGS DCP
INDEX 00 40:00:39
INDEX 01 40:01:36
TRACK 12 AUDIO
TITLE "祝福 Aizu Bandaisan"
PERFORMER "UTTARA-KURU"
FLAGS DCP
INDEX 00 44:37:66
INDEX 01 44:41:25
TRACK 13 AUDIO
TITLE "风鸟 Flowers,Birds,Winds & Moon(Epilogue)"
PERFORMER "UTTARA-KURU"
FLAGS DCP
INDEX 00 49:47:22
INDEX 01 49:50:52
呵呵,跟踪而至~~接着下!
很高兴找到无损的,应该是真正APE的吧?
希望这一类讲究音响效果的音乐都有发上无损的就好了...无限感谢楼主! 谢谢分享!
喜欢和平之月系列 《风》给人以广阔的空间。
很喜欢《八重云》和《雪舞》。
“雪舞”很好听,但“八重云”没什么好听的,“旅途”倒挺不错。
哈哈 有无损 我喜欢
foobar竟然因为ape崩溃了。。。
大哥大姐 行行好 我找了好长时间 今天终于找到了! 但是没有资源~~ 谁能做下种 !0.0% 一天了~

我开着共享。难道你的进度条一直是红的吗?