羽泉 -《三十》[APE]

羽泉 -《三十》[APE]
  • 片  名  羽泉 -《三十》[APE]
  • 简  介  发行时间: 2005年07月地区: 大陆语言: 普通话
  • 类  别  音乐
  • 小  类  华语音乐


  • 详细介绍专辑中文名: 三十歌手: 羽泉资源格式: APE发行时间: 2005年07月地区: 大陆语言: 普通话简介:
    专辑介绍:
    羽·泉即在7月5日推出了他们的第五张全新创作大碟,此次力邀钟兴民、钟国泰、黄中岳等资深音乐人、乐手共同保证音乐上一贯的高水准,在专辑开录前的两个月内,一起修改作品、探讨音乐风格与内容的走向。刚刚经历过三十岁的羽·泉,在这张唱片里完整、诚恳地道出了自己在经过“三十而立之年”,内心的变化、感受和越来越重的责任,还原隐藏许久的真实。同时,想通过新专辑里的歌,和≥30岁的人一起探讨“人间”和“活着的意义”,和<30岁的年轻人,一起分享三十岁呈现的咫尺般短暂的美。   新专辑首支主打曲《哪一站》已于近日在全国百家电台播放打榜,歌曲延续了羽·泉以往旋律上的流畅,带来听觉上一气呵成的痛快感和完整性。将人生中每一段缘分与机遇的来去比喻成上车与下车的关系,遇见或分手,谁都不能确定会走多远多久,但却始终在心里留有某人在下一站等待的乐观信念。
  • 羽泉 -《三十》[APE]_large

精选评论

大哥大姐们,做种啊,这么好的资源怎么下不了啊~~~
cue下不了,APE还在下载中,已经下了近半天月了~~~
郁闷,谁有cue文件,发给我哈yzbrssly@qq.com
喜欢“哪一站”,下了!
要是以后发APE的时候注明是不是原版CD抓轨 的就好了  因为有的是MP3转的APE这就还不如下MP3了 
不过喜欢羽泉这点也就不在乎了 
讨厌额! 《天下无贼》居然是Live版,不好听!我要原版的!5555
最美啊,呵呵!胡海泉是我们沈阳人,和我还是一届,还和我的同学是同学:)九九年下半年大街小巷飘满着最美的歌声,真的很美!羽凡的嗓音真的很好听,该去唱摇滚的,曾经听他在电视里唱BEYOND!
好听的专辑,谢谢分享
HOHO
制作最精致的专辑,歌的顺序都不能打乱
PERFORMER "羽·泉"
TITLE "三十"
FILE "羽泉.-.[三十].专辑.(ape).ape" WAVE
TRACK 01 AUDIO
TITLE "辛弃疾"
PERFORMER "羽·泉"
INDEX 01 00:00:00
TRACK 02 AUDIO
TITLE "人间(Original版)"
PERFORMER "羽·泉"
INDEX 01 03:53:24
TRACK 03 AUDIO
TITLE "尘埃"
PERFORMER "羽·泉"
INDEX 01 08:33:26
TRACK 04 AUDIO
TITLE "求爱歌"
PERFORMER "羽·泉"
INDEX 00 13:01:42
INDEX 01 13:04:42
TRACK 05 AUDIO
TITLE "玩偶之家"
PERFORMER "羽·泉"
INDEX 01 17:31:46
TRACK 06 AUDIO
TITLE "冬眠城市"
PERFORMER "羽·泉"
INDEX 01 20:33:72
TRACK 07 AUDIO
TITLE "人间(Melody版)"
PERFORMER "羽·泉"
INDEX 00 25:41:33
INDEX 01 25:41:38
TRACK 08 AUDIO
TITLE "寂寞公路"
PERFORMER "羽·泉"
INDEX 01 29:58:06
TRACK 09 AUDIO
TITLE "哪一站"
PERFORMER "羽·泉"
INDEX 01 35:02:14
TRACK 10 AUDIO
TITLE "天下无贼(Live版)"
PERFORMER "羽·泉"
INDEX 01 39:05:37
TRACK 11 AUDIO
TITLE "Has It"
PERFORMER "羽·泉"
INDEX 00 43:21:19
INDEX 01 43:21:24
TRACK 12 AUDIO
TITLE "这样的夜里我容易喝醉"
PERFORMER "羽·泉"
INDEX 00 47:10:14
INDEX 01 47:14:14
这是正确的,放心吧
好听。。。。。。。。。。
类似“顶”、“沙发”之类没有营养的文字,对勤劳贡献的楼主来说是令人沮丧的反馈信息。 但是我还要顶一下 鼓励为主