刘德华 -《爱意》专辑[APE]

刘德华 -《爱意》专辑[APE]
  • 片  名  刘德华 -《爱意》专辑[APE]
  • 简  介  发行时间: 1993年地区: 大陆语言: 粤语
  • 类  别  音乐
  • 小  类  华语音乐


  • 详细介绍专辑中文名: 爱意别名: 情人Happy Birthday歌手: 刘德华资源格式: APE版本: 专辑发行时间: 1993年地区: 大陆语言: 粤语简介:
    专辑介绍:
      经过一个阶段的徘徊不前之后,刘德华的1993年《爱意》专辑标志着他的歌艺又迈上了一个新台阶。这一步虽不大,但值得一赞。
      华仔唱慢歌,有种适度的甜蜜。象 今夜梦还暖 、 原来是你最可爱 、 你是我惊喜 、 情人Happy Birthday 、 报歉 等便是这类极富杀伤力的慢歌。
      《爱意》整张专辑舞曲风格的快歌占有一定的比例,象 爱意香摈 、 哎吔吔 、 最爱是她 等,看来华仔有意在快歌方面作更多的尝试。
      《爱意》中最为引人注目的一首歌是 A Long Lonely Night ,近乎清唱的黑人灵歌风格是华仔一次大胆的尝试。演绎方面基本到位,但味道还不够浓郁。
      虽说华仔向来提倡歌曲的原创性,但《爱意》专辑的改编填词曲却占了较大的比例,令人有些失望。
      唱片的封面设计很有艺术趣味,而且 爱意 极浓。
  • 刘德华 -《爱意》专辑[APE]_large

精选评论

CUE文件用不 了啊
能用的,发内容上来
找了好久了

谢谢楼主啊
速度慢了些啊.............
不知还能不能下完

速度有点慢.................
cue用记事本打开, 把把第三首藕断丝莲那多出的引号去掉 就可以用了
路过~~~~~~~~~~
mp3转的
PERFORMER "刘德华"
TITLE "爱意"
FILE "刘德华.-.[爱意].专辑.(ape).APE" WAVE
TRACK 01 AUDIO
TITLE "今夜梦还暖"
PERFORMER "刘德华"
INDEX 01 00:00:00
TRACK 02 AUDIO
TITLE "爱意香槟"
PERFORMER "刘德华"
INDEX 01 04:46:25
TRACK 03 AUDIO
TITLE "藕断丝莲(无线电视剧<龙兄鼠弟>插曲)"
PERFORMER "刘德华"
INDEX 01 09:27:13
TRACK 04 AUDIO
TITLE "哎吔吔"
PERFORMER "刘德华"
INDEX 01 13:02:25
TRACK 05 AUDIO
TITLE "你是我惊喜"
PERFORMER "刘德华"
INDEX 01 17:12:63
TRACK 06 AUDIO
TITLE "情人Happy Birthday"
PERFORMER "刘德华"
INDEX 01 21:05:25
TRACK 07 AUDIO
TITLE "A Long Lonely Night"
PERFORMER "刘德华"
INDEX 01 25:43:63
TRACK 08 AUDIO
TITLE "原来是你最爱"
PERFORMER "刘德华"
INDEX 01 28:41:25
TRACK 09 AUDIO
TITLE "最爱是她"
PERFORMER "刘德华"
INDEX 01 33:26:00
TRACK 10 AUDIO
TITLE "抱歉"
PERFORMER "刘德华"
INDEX 01 38:06:38
TRACK 11 AUDIO
TITLE "现实是场梦(无线电视剧《龙兄鼠弟》主题曲)"
PERFORMER "刘德华"
INDEX 01 42:34:38
路过……看一下!!!!
音质怎么没有MP3亮呢?失望,后悔。
补充:比较后,还好。