陈升 -《鸦片玫瑰》[APE]

陈升 -《鸦片玫瑰》[APE]
  • 片  名  陈升 -《鸦片玫瑰》[APE]
  • 简  介  发行时间: 1998年地区: 台湾语言: 普通话,台语
  • 类  别  音乐
  • 小  类  华语音乐


  • 详细介绍专辑中文名: 鸦片玫瑰歌手: 陈升资源格式: APE发行时间: 1998年地区: 台湾语言: 普通话,台语简介:
    专辑介绍:
      世道太热,人心太渴,真情解渴,只有陈昇的歌当太多口味过重的刺激,痲痺我们的听觉,我们开始对简单的歌,有一种渴望。像一个口渴的人,对一杯水的渴望。
      每一次听到熟悉的口琴在新的旋律里响起,都有一种说不出的苍凉感觉浮上心头:又一年过去了,陈升的声音又老了一点,他的歌离纷繁的世界又远了一些,离中年人恬静的内心又近了一些。 在漫长听歌的岁月里,期待陈升已经变成了一种习惯。用陈升的话说,是因为 我不想搁在温柔乡里面慢慢的死掉 (出自《橘子鼓》)。
      陈升的简单句子和几乎没有旋律的歌声里面,有着现在的流行音乐最缺乏的坦白与真诚。 它用了一个很悬的名字《鸦片玫瑰》,想告诉我们女人像鸦片、玫瑰很多刺,可是同名歌曲里面最有价值的一句话却是他不小心流露出来的事情的相: 你说我们的热情真的也老了……也就这样随便爱了你一回…… 《细汉仔》是曾经放在滚石合辑里的老歌,但不管什么时候听,对小人物的悲哀如此感同身受的歌曲都值得喝彩与尊敬。《浅蓝大肥猫》很像《西门浪子》,说的是 方圆一里以内的绯闻他知道 的没有方向的人自以为过得不错的可怜。《咸鱼的滋味》、《黑光》这样的纯音乐带来的也还是陈升一贯的滋味。
      一遍遍听下来,陈升真诚依旧,但是依旧的水准加上没有太多动听旋律的总体感觉,似乎已经不可能再吸引新的歌迷喜欢他独特的风格。不过,不管是鸦片还是玫瑰,只要是陈升,就永远会由他那种独特的味道:悲哀的自由、苍凉的真实。就像他身后湛蓝的大海,和天地间飞扬的自在。
  • 陈升 -《鸦片玫瑰》[APE]_large

精选评论

这张好的专辑怎么没人支持,多谢楼主分享,要是速度快点就好了~
升哥啊,你怎么这么招人爱啊
谢谢!
很颓废的一张。
REM DISCID 850CD70B
REM COMMENT "ExactAudioCopy v0.95b4"
PERFORMER "Bobby Chan"
TITLE "Poppy Roses"
FILE "陈升.-.[鸦片玫瑰].专辑.(APE).ape" WAVE
TRACK 01 AUDIO
TITLE "生命的滋味"
PERFORMER "Bobby Chan"
INDEX 01 00:00:00
TRACK 02 AUDIO
TITLE " 细汉仔"
PERFORMER "Bobby Chan"
INDEX 01 05:35:47
TRACK 03 AUDIO
TITLE "流星小夜曲"
PERFORMER "Bobby Chan"
INDEX 01 11:57:64
TRACK 04 AUDIO
TITLE "浅蓝大肥猫t"
PERFORMER "Bobby Chan"
INDEX 00 18:27:40
INDEX 01 18:29:35
TRACK 05 AUDIO
TITLE " 克莉斯汀"
PERFORMER "Bobby Chan"
INDEX 00 22:28:66
INDEX 01 22:31:20
TRACK 06 AUDIO
TITLE "鸦片玫瑰"
PERFORMER "Bobby Chan"
INDEX 00 27:16:41
INDEX 01 27:18:12
TRACK 07 AUDIO
TITLE "咸鱼的滋味"
PERFORMER "Bobby Chan"
INDEX 00 32:14:57
INDEX 01 32:16:27
TRACK 08 AUDIO
TITLE "影子"
PERFORMER "Bobby Chan"
INDEX 00 33:41:29
INDEX 01 33:43:45
TRACK 09 AUDIO
TITLE "橘子鼓"
PERFORMER "Bobby Chan"
INDEX 00 38:36:59
INDEX 01 38:37:00
TRACK 10 AUDIO
TITLE ""A"Train到天堂"
PERFORMER "Bobby Chan"
INDEX 00 45:20:15
INDEX 01 45:22:55
TRACK 11 AUDIO
TITLE "黑光"
PERFORMER "Bobby Chan"
INDEX 00 52:33:01
INDEX 01 52:33:12
上面的cue用foobar打不开,因为第10首歌的引号的原因,我改好了

PERFORMER "Bobby Chan"
TITLE "Poppy Roses"
FILE "陈升.-.[鸦片玫瑰].专辑.(APE).ape" WAVE
TRACK 01 AUDIO
TITLE "生命的滋味"
PERFORMER "Bobby Chan"
INDEX 01 00:00:00
TRACK 02 AUDIO
TITLE " 细汉仔"
PERFORMER "Bobby Chan"
INDEX 01 05:35:47
TRACK 03 AUDIO
TITLE "流星小夜曲"
PERFORMER "Bobby Chan"
INDEX 01 11:57:64
TRACK 04 AUDIO
TITLE "浅蓝大肥猫t"
PERFORMER "Bobby Chan"
INDEX 00 18:27:40
INDEX 01 18:29:35
TRACK 05 AUDIO
TITLE " 克莉斯汀"
PERFORMER "Bobby Chan"
INDEX 00 22:28:66
INDEX 01 22:31:20
TRACK 06 AUDIO
TITLE "鸦片玫瑰"
PERFORMER "Bobby Chan"
INDEX 00 27:16:41
INDEX 01 27:18:12
TRACK 07 AUDIO
TITLE "咸鱼的滋味"
PERFORMER "Bobby Chan"
INDEX 00 32:14:57
INDEX 01 32:16:27
TRACK 08 AUDIO
TITLE "影子"
PERFORMER "Bobby Chan"
INDEX 00 33:41:29
INDEX 01 33:43:45
TRACK 09 AUDIO
TITLE "橘子鼓"
PERFORMER "Bobby Chan"
INDEX 00 38:36:59
INDEX 01 38:37:00
TRACK 10 AUDIO
TITLE "“A”Train到天堂"
PERFORMER "Bobby Chan"
INDEX 00 45:20:15
INDEX 01 45:22:55
TRACK 11 AUDIO
TITLE "黑光"
PERFORMER "Bobby Chan"
INDEX 00 52:33:01
INDEX 01 52:33:12