Various Artists -《欧美组格莱美特别企划》(VA - Grammy Nominees)1998[APE]

Various Artists -《欧美组格莱美特别企划》(VA - Grammy Nominees)1998[APE]
  • 片  名  Various Artists -《欧美组格莱美特别企划》(VA - Grammy Nominees)1998[APE]
  • 简  介  发行时间: 1998年地区: 美国语言: 英语
  • 类  别  音乐
  • 小  类  欧美音乐


  • 详细介绍简介: 转自中国驴
    中文名称:格莱美1998
    英文名称:Grammy Nominees 1998
    资源类型:APE
    专辑歌手:Various Artists
  • Various Artists -《欧美组格莱美特别企划》(VA - Grammy Nominees)1998[APE]_large

精选评论

CUE文件是错误的,谁能给个正确的?
彻底无奈了,这个CUE怎么搞的??谁有麻烦发个MAIL: tokyohowe@yahoo.com.cn 非常感谢!
谁能给个正确的CUE文件呀?
谁有正确的cue文件啊?
有的话,谢谢发一下!
PERFORMER "The Rolling Stones"
TITLE "[中国驴音乐]1998 Grammy Nominees"
FILE "Various.Artists.-.[VA-Grammy.Nominees.1998].专辑.(ape).ape" WAVE
TRACK 01 AUDIO
TITLE "[中国驴音乐]Where Have All The Cowboys Gone?"
PERFORMER "Paula Cole"
INDEX 01 00:00:00
TRACK 02 AUDIO
TITLE "[中国驴音乐]Sunny Came Home"
PERFORMER "Shawn Colvin"
INDEX 01 04:28:12
TRACK 03 AUDIO
TITLE "[中国驴音乐]Everyday Is A Winding Road"
PERFORMER "Sheryl Crow"
INDEX 01 08:55:05
TRACK 04 AUDIO
TITLE "[中国驴音乐]MMMBop"
PERFORMER "Hanson"
INDEX 00 13:11:72
INDEX 01 13:13:42
TRACK 05 AUDIO
TITLE "[中国驴音乐]I Believe I Can Fly"
PERFORMER "R. Kelly"
INDEX 01 17:42:42
TRACK 06 AUDIO
TITLE "[中国驴音乐]Criminal"
PERFORMER "Fiona Apple"
INDEX 00 23:03:55
INDEX 01 23:05:40
TRACK 07 AUDIO
TITLE "[中国驴音乐]On & On"
PERFORMER "Erykah Badu"
INDEX 01 28:49:10
TRACK 08 AUDIO
TITLE "[中国驴音乐]Silver Springs"
PERFORMER "Fleetwood Mac"
INDEX 00 32:35:52
INDEX 01 32:37:50
TRACK 09 AUDIO
TITLE "[中国驴音乐]Virtual Insanity"
PERFORMER "Jamiroquai"
INDEX 00 38:19:47
INDEX 01 38:21:02
TRACK 10 AUDIO
TITLE "[中国驴音乐]Don't Speak"
PERFORMER "No Doubt"
INDEX 00 44:02:72
INDEX 01 44:04:00
TRACK 11 AUDIO
TITLE "[中国驴音乐]Anybody Seen My Baby?"
PERFORMER "The Rolling Stones"
INDEX 01 48:27:62
原来的cue文件也是能用的,只要把每首歌中间的歌词删除就好了
谢谢楼主的分享
收藏

谢谢分享!
thank you!
好,谢谢分享。
无源了,最近这东西都无源啦

哪位大侠给补源啊

不胜感激啊
不錯的資源,趕快下載吧.........
谢谢5L的cue