《犬夜叉剧场版音乐选集》(Inuyasha)[Movie OST Best Album - 音楽撰集(映画篇)][FLAC+MP3(320kbps)]

《犬夜叉剧场版音乐选集》(Inuyasha)[Movie OST Best Album - 音楽撰集(映画篇)][FLAC+MP3(320kbps)]
  • 片  名  《犬夜叉剧场版音乐选集》(Inuyasha)[Movie OST Best Album - 音楽撰集(映画篇)][FLAC+MP3(320kbps)]
  • 简  介  发行时间: 2005年03月16日对白语言: 日语
  • 类  别  动漫
  • 小  类  动漫周边


  • 详细介绍中文名: 犬夜叉剧场版音乐选集英文名: Inuyasha版本: [Movie OST Best Album - 音楽撰集(映画篇)][FLAC+MP3(320kbps)]发行时间: 2005年03月16日地区: 日本对白语言: 日语简介:
    【剧情简介】
    [2001年 犬夜叉剧场版1 - 《時を超える想い》]
    经过200年漫长的岁月要向犬夜叉复仇的玛瑙丸,那个能量变成强大的力量,其强大的攻击使犬夜叉负了濒临死亡的重伤。被夺走风穴的弥勒,被云母袭击的珊瑚,被强力的牵绊结合在一起的同伴产生了动摇,被追击得走头无路,对着中了玛瑙丸的妖术想要杀掉犬夜叉的戈薇,桔梗冷酷地告戒:“回到你的时代去……别再见犬夜叉了……”
    [2002年 犬夜叉剧场版2 - 《鏡の中の夢幻城》]
    紧追宿敌·奈落不舍的犬夜叉、戈薇一行。戈薇放出的破魔箭和犬夜叉的铁碎牙,总算逮住了奈落!不可思议的事情发生了!这一夜开始,出现了满月持续了数天的奇怪的现象!就在这时,犬夜叉一行面前出现了一名叫“天空の姫?神久夜”的妖怪。果然,能够自由操纵时间的最大之敌“神久夜”和奈落究竟是什么关系?现在,在这里,围绕着“四魂之玉”而展开的壮丽的战国的绘卷,崭新的门扉就此开启!
    [2003年 犬夜叉剧场版3 - 《天下覇道の剣》]
    伟大的父亲的血因来的兄弟杀生丸和犬夜叉…… 父亲留给兄弟两人鉄砕牙和天生牙,现在又听说第三把叢雲牙的存在……持有此剑的人能控制天下……如今,因缘两兄弟的血又在这场战斗中下了赌注……
    [2004年 犬夜叉剧场版4 - 《紅蓮の蓬莱島》]
    蓬莱岛是传说中的五十年才出现一次的岛屿。在岛上妖怪和人类甚至半妖都和谐的生活。这个岛从很久以前被圣器鸣动之釜的力量所保护,免受外界妖怪的侵袭。但是,号称亩飞?的妖怪趁蓬莱岛的结界虚弱的时候入侵,污染了鸣动之釜,,占领了蓬莱岛.........发现这个桔梗是四斗神根据桔梗得血液做出的复制品。玉之匣被copy桔梗打开,四斗神恢复了以前的能力。犬夜叉和copy桔梗开战,正当他要杀死这个复制品时,她扑到了犬夜叉怀里,犬夜叉心软了。而真正的桔梗出现,用破魔剑射死了复制品,救了犬夜叉后离去.......在半妖们的帮助下,戈薇找到了弓和箭,射出了破魔之箭,配合犬夜叉的金刚枪破把四斗神的合体杀死。这时候,失去了鸣动之釜保护的蓬莱岛也在渐渐下沉。。。。。
    【专辑介绍】
    オリジナルサウンドトラック・ベストアルバム 犬夜叉 音楽撰集 -映画篇-
    商品番号: AVCA-22277
    メディア: CD
    組枚数: 1
    発売日: 2005/03/16
    価格: 3059円(税込)
    【アーティスト/ キャスト】
    和田薫 (作曲者)  
    [内容]
    巨匠・和田薫によるTV版書下ろしスコアの数々から、選りすぐりの楽曲を収録した「犬夜叉」サントラ・ベスト2タイトル同時発売!! こちらの音楽撰集には、歴代の映画版オリジナルサウンドトラック(「犬夜叉 時代を越える想い(2001年公開)」「犬夜叉 鏡の中の夢幻城(2002年公開)」「犬夜叉 天下覇道の剣(2003年公開)」「犬夜叉 紅蓮の蓬莱島(2004年公開)」)から、厳選したBGM約40曲を収録。
    【专辑曲目】
    01. メインタイトル M-5 6
    02. 御神木 M-16
    03. 瑪瑙丸 M-17 18 19
    04. 操りの笛 M-30 31 32 33A 33B
    05. かごめと桔梗 M-35
    06. 時代を越える想いI M-36
    07. 母娘 M-38
    08. 時代を越える想いII M-42
    09. メインタイトル M-4
    10. 天空の姫 神久夜 M-7
    11. 二人のペンダント M-12
    12. 少女と桔梗 M-17
    13. 姉弟の思
  • 《犬夜叉剧场版音乐选集》(Inuyasha)[Movie OST Best Album - 音楽撰集(映画篇)][FLAC+MP3(320kbps)]_large

精选评论

同样眼 忽然台突然眼年火热眼
为什么速度为零什么时候供源啊
沙发的同志你是脑子混乱了啊,还是脑子本来就有问题啊,还是只是想瞎抢沙发还是单纯想捣乱??= =||||

又坐个地板。。呵呵~
从犬犬和薇薇那里收到的第二份新年礼物~~~~*^O^*多谢犬薇,多谢LZ啦~!!!!
時代を越える想いI

强烈推荐这首曲,太好听了~~
等了好久好辛苦,终于等到了,莫斯科录制版不知道是什么时候出来的?以前下载时没有见过
唉,下吧,不下感觉心里总有些空啊
谢谢
i不错下来看看.....不知道速度怎么样
请问楼主这个是整轨的吗?
《犬夜叉》……
感动我的动漫之一
内里的音乐功不可没~
《時代を越える想》等等……
收藏了!
最后,谢楼主分享~
本想下载FLAC的,但下载了好久一直没前进,只能放弃了~
MP3版的下载完了,谢楼主分享^-^
跨越时空的思念…… 時代を越える想い

我爱了好久
正确的cue:

PERFORMER "和田薰"
TITLE "犬夜叉剧场版1-超越时代的思念音乐篇"
FILE "CDImage.ape" WAVE
TRACK 01 AUDIO
TITLE "Track01"
PERFORMER "和田薰"
INDEX 01 00:00:00
TRACK 02 AUDIO
TITLE "Track02"
PERFORMER "和田薰"
INDEX 00 01:49:36
INDEX 01 01:49:37
TRACK 03 AUDIO
TITLE "Track03"
PERFORMER "和田薰"
INDEX 01 02:58:22
TRACK 04 AUDIO
TITLE "Track04"
PERFORMER "和田薰"
INDEX 00 05:55:06
INDEX 01 05:55:07
TRACK 05 AUDIO
TITLE "Track05"
PERFORMER "和田薰"
INDEX 00 08:58:46
INDEX 01 08:58:47
TRACK 06 AUDIO
TITLE "Track06"
PERFORMER "和田薰"
INDEX 00 10:54:74
INDEX 01 10:55:00
TRACK 07 AUDIO
TITLE "Track07"
PERFORMER "和田薰"
INDEX 00 13:43:36
INDEX 01 13:43:37
TRACK 08 AUDIO
TITLE "Track08"
PERFORMER "和田薰"
INDEX 00 14:33:56
INDEX 01 14:33:57
TRACK 09 AUDIO
TITLE "Track09"
PERFORMER "和田薰"
INDEX 00 17:15:21
INDEX 01 17:15:22
TRACK 10 AUDIO
TITLE "Track10"
PERFORMER "和田薰"
INDEX 00 20:00:14
INDEX 01 20:00:15
TRACK 11 AUDIO
TITLE "Track11"
PERFORMER "和田薰"
INDEX 00 22:43:71
INDEX 01 22:43:72
TRACK 12 AUDIO
TITLE "Track12"
PERFORMER "和田薰"
INDEX 00 24:09:36
INDEX 01 24:09:37
TRACK 13 AUDIO
TITLE "Track13"
PERFORMER "和田薰"
INDEX 01 26:30:37
TRACK 14 AUDIO
TITLE "Track14"
PERFORMER "和田薰"
INDEX 00 28:33:09
INDEX 01 28:33:10
TRACK 15 AUDIO
TITLE "Track15"
PERFORMER "和田薰"
INDEX 00 30:29:34
INDEX 01 30:29:35
TRACK 16 AUDIO
TITLE "Track16"
PERFORMER "和田薰"
INDEX 01 33:19:47
TRACK 17 AUDIO
TITLE "Track17"
PERFORMER "和田薰"
INDEX 01 33:51:30
TRACK 18 AUDIO
TITLE "Track18"
PERFORMER "和田薰"
INDEX 01 34:48:10
TRACK 19 AUDIO
TITLE "Track19"
PERFORMER "和田薰"
INDEX 00 38:37:41
INDEX 01 38:37:42
TRACK 20 AUDIO
TITLE "Track20"
PERFORMER "和田薰"
INDEX 00 42:17:51
INDEX 01 42:17:52
TRACK 21 AUDIO
TITLE "Track21"
PERFORMER "和田薰"
INDEX 01 44:33:25
TRACK 22 AUDIO
TITLE "Track22"
PERFORMER "和田薰"
INDEX 00 45:04:71
INDEX 01 45:04:72
TRACK 23 AUDIO
TITLE "Track23"
PERFORMER "和田薰"
INDEX 01 46:54:47
TRACK 24 AUDIO
TITLE "Track24"
PERFORMER "和田薰"
INDEX 00 48:06:36
INDEX 01 48:06:37
TRACK 25 AUDIO
TITLE "Track25"
PERFORMER "和田薰"
INDEX 00 49:34:29
INDEX 01 49:34:30
TRACK 26 AUDIO
TITLE "Track26"
PERFORMER "和田薰"
INDEX 01 52:01:30
TRACK 27 AUDIO
TITLE "Track27"
PERFORMER "和田薰"
INDEX 00 53:49:06
INDEX 01 53:49:07
TRACK 28 AUDIO
TITLE "Track28"
PERFORMER "和田薰"
INDEX 00 56:06:74
INDEX 01 56:07:00
TRACK 29 AUDIO
TITLE "Track29"
PERFORMER "和田薰"
INDEX 01 58:12:72


ape的文件名要改成CDImage.ape